<?xml version="1.0" standalone="no"?>
<!DOCTYPE svg PUBLIC "-//W3C//DTD SVG 1.1//EN" "http://www.w3.org/Graphics/SVG/1.1/DTD/svg11.dtd">
<svg xmlns="http://www.w3.org/2000/svg">
<defs >
<font id="NotoSans" horiz-adv-x="1151" ><font-face
    font-family="Noto Sans"
    units-per-em="2048"
    panose-1="2 11 5 2 4 5 4 9 2 4"
    ascent="2189"
    descent="-600"
    alphabetic="0" />
<glyph unicode=" " horiz-adv-x="532" />
<glyph unicode="!" horiz-adv-x="535" d="M563 1462L291 412H170L344 1462H563ZM41 82Q41 157 83 202T195 248Q241 248 270 220T299 137Q299 67 259 19T150 -29Q97 -29 69 0T41 82Z" />
<glyph unicode="&quot;" horiz-adv-x="803" d="M492 1462L338 934H223L295 1462H492ZM844 1462L690 934H575L647 1462H844Z" />
<glyph unicode="#" horiz-adv-x="1323" d="M1036 895L940 563H1223L1210 428H901L778 0H631L760 428H465L340 0H199L319 428H61L74 563H358L457 895H182L195 1028H494L616 1462H764L639 1028H934L1061 1462H1200L1077 1028H1339L1325 895H1036ZM504 563H799L891
895H598L504 563Z" />
<glyph unicode="$" horiz-adv-x="1128" d="M950 492Q950 330 837 229T522 104L473 -119H340L389 102Q194 116 70 176V340Q144 301 238 277T418 250L514 690Q371 742 308 817T244 1008Q244 1168 354 1264T657 1378L696 1552H829L793 1376Q951 1364 1075 1300L1008
1155Q888 1220 762 1229L670 801Q821 745 885 674T950 492ZM553 256Q657 269 717 328T778 477Q778 531 746 571T637 643L553 256ZM627 1229Q519 1215 465 1159T410 1012Q410 900 547 848L627 1229Z" />
<glyph unicode="%" horiz-adv-x="1636" d="M541 1350Q476 1350 425 1289T343 1104T311 864Q311 700 414 700Q476 700 527 764T611 957T645 1190Q645 1350 541 1350ZM793 1202Q793 1094 762 966T679 750T557 614T399 565Q287 565 226 641T164 862Q164 1029 215
1182T353 1409T553 1483Q671 1483 732 1411T793 1202ZM1477 1462L391 0H231L1317 1462H1477ZM1292 764Q1228 764 1178 703T1097 519T1065 279Q1065 115 1165 115Q1228 115 1278 177T1362 371T1397 604Q1397 764 1292 764ZM1546 618Q1546 510 1516 384T1434 169T1312
30T1151 -20Q1038 -20 977 54T915 274Q915 444 966 594T1103 821T1305 897Q1423 897 1484 825T1546 618Z" />
<glyph unicode="&amp;" horiz-adv-x="1378" d="M1239 0H1026L913 160Q792 62 682 21T442 -20Q269 -20 168 76T66 344Q66 491 155 600T455 811Q354 971 354 1116Q354 1281 461 1383T748 1485Q897 1485 985 1406T1073 1192Q1073 1109 1035 1043T925 921T676 774L946
397Q1065 501 1141 692H1321Q1220 450 1036 272L1239 0ZM530 700Q414 640 358 592T273 487T244 356Q244 252 309 191T477 129Q563 129 644 162T827 279L530 700ZM604 887Q738 954 788 992T868 1076T899 1178Q899 1250 859 1294T739 1339Q637 1339 582 1280T526
1116Q526 996 604 887Z" />
<glyph unicode="&apos;" horiz-adv-x="451" d="M492 1462L338 934H223L295 1462H492Z" />
<glyph unicode="(" horiz-adv-x="594" d="M82 272Q82 615 204 905T586 1462H752Q254 914 254 274Q254 -63 369 -324H229Q82 -65 82 272Z" />
<glyph unicode=")" horiz-adv-x="594" d="M510 864Q510 518 388 230T6 -324H-158Q338 227 338 864Q338 1206 225 1462H365Q510 1195 510 864Z" />
<glyph unicode="*" horiz-adv-x="1128" d="M856 1528L735 1147L1153 1167L1145 999L756 1047L934 668L762 614L651 1014L399 676L274 801L580 1081L211 1190L268 1350L637 1167L678 1563L856 1528Z" />
<glyph unicode="+" horiz-adv-x="1128" d="M512 647H125V797H512V1186H662V797H1049V647H662V262H512V647Z" />
<glyph unicode="," horiz-adv-x="524" d="M311 238L319 215Q221 4 49 -264H-88Q4 -56 115 238H311Z" />
<glyph unicode="-" horiz-adv-x="641" d="M53 465L90 631H573L537 465H53Z" />
<glyph unicode="." horiz-adv-x="524" d="M41 78Q41 154 83 201T199 248Q244 248 271 221T299 139Q299 67 258 19T147 -29Q96 -29 69 -1T41 78Z" />
<glyph unicode="/" horiz-adv-x="729" d="M903 1462L92 0H-94L719 1462H903Z" />
<glyph unicode="0" horiz-adv-x="1128" d="M1094 1014Q1094 722 1017 479T803 108T483 -20Q304 -20 211 109T117 477Q117 750 198 992T414 1360T725 1485Q1094 1485 1094 1014ZM715 1331Q605 1331 511 1218T358 895T299 477Q299 311 347 222T504 133Q614 133 704
242T852 566T909 1018Q909 1331 715 1331Z" />
<glyph unicode="1" horiz-adv-x="1128" d="M596 0H414L608 905Q653 1119 694 1257Q638 1199 557 1149L377 1036L293 1171L752 1462H909L596 0Z" />
<glyph unicode="2" horiz-adv-x="1128" d="M911 0H6L39 154L504 573Q708 756 771 830T863 972T893 1120Q893 1216 835 1272T676 1329Q597 1329 524 1299T362 1202L276 1325Q471 1483 696 1483Q876 1483 978 1393T1081 1149Q1081 1043 1044 952T919 760T618 471L274
172V164H942L911 0Z" />
<glyph unicode="3" horiz-adv-x="1128" d="M1075 1159Q1075 1004 975 895T696 754V745Q824 721 893 637T963 430Q963 297 900 196T716 37T430 -20Q218 -20 45 59V233Q130 186 234 159T432 131Q593 131 682 209T772 422Q772 549 696 614T477 680H346L377 829H510Q676
829 783 914T891 1137Q891 1225 836 1278T682 1331Q588 1331 510 1299T354 1212L270 1339Q465 1483 698 1483Q875 1483 975 1397T1075 1159Z" />
<glyph unicode="4" horiz-adv-x="1128" d="M1063 332H836L764 0H590L662 332H12L43 496L868 1462H1075L872 492H1098L1063 332ZM696 492L770 842Q799 976 885 1278H877Q855 1242 808 1179T737 1087L227 492H696Z" />
<glyph unicode="5" horiz-adv-x="1128" d="M600 895Q784 895 890 790T997 508Q997 348 924 225T720 41T410 -20Q210 -20 76 59V233Q240 131 410 131Q597 131 703 224T809 485Q809 609 737 680T535 752Q489 752 447 746T301 715L225 774L424 1462H1098L1063 1298H545L422
874Q519 895 600 895Z" />
<glyph unicode="6" horiz-adv-x="1128" d="M129 428Q129 637 190 845T358 1198T605 1413T930 1483Q1041 1483 1118 1460L1081 1305Q1007 1329 909 1329Q696 1329 555 1183T346 750H354Q413 827 499 873T692 920Q847 920 935 822T1024 551Q1024 390 957 255T775
50T514 -20Q329 -20 229 96T129 428ZM532 131Q623 131 694 184T806 331T846 535Q846 774 631 774Q567 774 507 747T400 671T330 566T307 416Q307 282 366 207T532 131Z" />
<glyph unicode="7" horiz-adv-x="1128" d="M166 0L930 1303H219L252 1462H1151L1124 1319L360 0H166Z" />
<glyph unicode="8" horiz-adv-x="1128" d="M739 1485Q915 1485 1013 1398T1112 1161Q1112 1032 1033 936T770 762Q892 688 946 600T1001 395Q1001 273 941 178T769 31T504 -20Q312 -20 202 78T92 346Q92 492 185 600T479 786Q389 850 347 925T305 1100Q305 1214
361 1302T516 1437T739 1485ZM606 694Q431 639 355 557T279 356Q279 252 345 191T522 129Q612 129 678 162T781 256T817 391Q817 490 766 562T606 694ZM725 1333Q615 1333 549 1270T483 1100Q483 1023 520 961T645 844Q796 900 863 971T930 1143Q930 1231 875 1282T725
1333Z" />
<glyph unicode="9" horiz-adv-x="1128" d="M1069 1032Q1069 838 1014 626T867 268T643 51T338 -20Q202 -20 96 14V180Q236 135 342 135Q542 135 665 272T852 702H842Q791 630 711 587T530 543Q360 543 269 642T178 930Q178 1082 243 1210T424 1410T688 1483Q868
1483 968 1369T1069 1032ZM678 1331Q532 1331 444 1221T356 938Q356 817 409 753T567 688Q657 688 730 731T847 855T891 1057Q891 1184 834 1257T678 1331Z" />
<glyph unicode=":" horiz-adv-x="524" d="M41 78Q41 154 83 201T199 248Q244 248 271 221T299 139Q299 67 258 19T147 -29Q96 -29 69 -1T41 78ZM203 954Q203 1032 245 1079T360 1126Q405 1126 433 1100T461 1018Q461 946 421 898T309 850Q258 850 231 877T203 954Z" />
<glyph unicode=";" horiz-adv-x="524" d="M307 215Q209 4 37 -264H-100Q16 -2 102 238H299L307 215ZM203 954Q203 1032 245 1079T360 1126Q405 1126 433 1100T461 1018Q461 946 421 898T309 850Q258 850 231 877T203 954Z" />
<glyph unicode="&lt;" horiz-adv-x="1128" d="M1042 238L119 662V764L1042 1245V1087L305 721L1042 397V238Z" />
<glyph unicode="=" horiz-adv-x="1128" d="M125 817V965H1049V817H125ZM125 477V625H1049V477H125Z" />
<glyph unicode="&gt;" horiz-adv-x="1128" d="M119 397L856 721L119 1087V1245L1042 764V662L119 238V397Z" />
<glyph unicode="?" horiz-adv-x="881" d="M260 412Q282 545 335 629T500 801Q620 891 661 935T725 1028T748 1139Q748 1228 699 1277T555 1327Q477 1327 403 1301T260 1243L195 1380Q285 1428 384 1455T575 1483Q745 1483 837 1399T930 1161Q930 1039 867 938T637
713Q509 619 469 566T406 412H260ZM158 78Q158 154 199 201T315 248Q360 248 388 221T416 139Q416 67 375 19T264 -29Q213 -29 186 -1T158 78Z" />
<glyph unicode="@" horiz-adv-x="1737" d="M1683 850Q1683 671 1627 526T1471 299T1247 217Q1052 217 1032 399H1024Q919 217 737 217Q622 217 556 293T489 504Q489 659 556 786T743 987T1006 1061Q1073 1061 1136 1049T1288 1001L1192 635Q1159 521 1159 459Q1159
346 1257 346Q1330 346 1392 407T1494 585T1534 836Q1534 1073 1406 1199T1038 1325Q815 1325 638 1221T361 928T262 512Q262 242 406 97T811 -49Q906 -49 1019 -26T1233 37V-96Q1016 -186 788 -186Q582 -186 428 -103T191 137T109 504Q109 770 236 993T581 1338T1065
1460Q1258 1460 1397 1385T1609 1171T1683 850ZM985 934Q893 934 814 879T690 728T645 518Q645 346 774 346Q954 346 1040 657L1108 911Q1051 934 985 934Z" />
<glyph unicode="A" d="M815 455H322L84 0H-117L678 1462H870L1051 0H870L815 455ZM797 618L764 924Q737 1151 737 1268Q705 1191 667 1114T410 618H797Z" />
<glyph unicode="B" horiz-adv-x="1229" d="M772 1462Q987 1462 1096 1377T1206 1126Q1206 985 1121 889T877 762V752Q991 720 1051 643T1112 455Q1112 244 962 122T551 0H84L393 1462H772ZM444 840H684Q836 840 926 910T1016 1104Q1016 1201 954 1253T750 1305H543L444
840ZM299 156H557Q731 156 825 233T920 455Q920 568 849 628T641 688H412L299 156Z" />
<glyph unicode="C" horiz-adv-x="1202" d="M938 1321Q763 1321 629 1222T419 940T342 543Q342 356 437 249T700 141Q844 141 1024 201V41Q861 -20 668 -20Q423 -20 285 129T147 539Q147 796 251 1020T534 1364T938 1483Q1144 1483 1294 1401L1221 1249Q1082 1321
938 1321Z" />
<glyph unicode="D" horiz-adv-x="1366" d="M1303 879Q1303 617 1199 417T900 108T444 0H84L393 1462H739Q1015 1462 1159 1313T1303 879ZM455 158Q653 158 802 248T1030 503T1110 881Q1110 1090 1010 1197T717 1305H543L299 158H455Z" />
<glyph unicode="E" horiz-adv-x="1053" d="M825 0H84L393 1462H1135L1100 1300H541L444 844H967L936 684H412L299 162H860L825 0Z" />
<glyph unicode="F" horiz-adv-x="977" d="M266 0H84L393 1462H1135L1102 1300H541L432 780H956L922 618H397L266 0Z" />
<glyph unicode="G" horiz-adv-x="1389" d="M815 770H1284L1128 55Q1007 13 908 -3T702 -20Q439 -20 293 125T147 530Q147 798 250 1019T533 1362T936 1483Q1053 1483 1154 1463T1360 1397L1290 1237Q1213 1271 1126 1296T934 1321Q768 1321 632 1221T419 943T342
543Q342 354 441 248T721 141Q862 141 973 178L1067 610H780L815 770Z" />
<glyph unicode="H" horiz-adv-x="1393" d="M1092 0H911L1055 682H412L268 0H86L395 1462H578L446 844H1090L1221 1462H1401L1092 0Z" />
<glyph unicode="I" horiz-adv-x="664" d="M471 0H-41L-20 100L154 141L403 1321L248 1360L268 1462H780L760 1360L584 1321L334 141L492 100L471 0Z" />
<glyph unicode="J" horiz-adv-x="559" d="M-164 -389Q-269 -389 -319 -365L-313 -207Q-244 -227 -168 -227Q36 -227 88 18L395 1462H578L268 -2Q186 -389 -164 -389Z" />
<glyph unicode="K" d="M1044 0H844L559 709L389 584L266 0H84L393 1462H575L424 752L551 887L1112 1462H1333L698 819L1044 0Z" />
<glyph unicode="L" horiz-adv-x="979" d="M84 0L393 1462H575L299 164H860L825 0H84Z" />
<glyph unicode="M" horiz-adv-x="1722" d="M799 268L1448 1462H1729L1425 0H1241L1425 868Q1486 1152 1524 1284H1520L815 0H670L514 1282H506Q491 1127 440 879L254 0H82L391 1462H649L791 268H799Z" />
<glyph unicode="N" horiz-adv-x="1448" d="M1149 0H954L502 1212H496Q475 1040 422 795L254 0H82L391 1462H586L1034 254H1040Q1053 347 1075 471T1112 657L1284 1462H1458L1149 0Z" />
<glyph unicode="O" horiz-adv-x="1477" d="M1413 909Q1413 634 1322 421T1068 94T690 -20Q433 -20 290 129T147 547Q147 809 242 1027T506 1365T887 1485Q1134 1485 1273 1332T1413 909ZM874 1323Q720 1323 598 1224T409 947T342 551Q342 356 437 249T696 141Q844
141 963 238T1150 515T1219 913Q1219 1105 1128 1214T874 1323Z" />
<glyph unicode="P" horiz-adv-x="1161" d="M1161 1081Q1161 834 997 703T518 571H387L266 0H84L393 1462H723Q939 1462 1050 1367T1161 1081ZM420 725H547Q756 725 865 815T975 1075Q975 1197 907 1251T698 1305H543L420 725Z" />
<glyph unicode="Q" horiz-adv-x="1477" d="M1413 909Q1413 580 1276 337T903 14L1178 -348H944L723 -18L706 -20H690Q433 -20 290 129T147 547Q147 809 242 1027T506 1365T887 1485Q1134 1485 1273 1332T1413 909ZM874 1323Q720 1323 598 1224T409 947T342 551Q342
356 437 249T696 141Q847 141 964 236T1150 510T1219 913Q1219 1105 1128 1214T874 1323Z" />
<glyph unicode="R" horiz-adv-x="1174" d="M426 760H586Q775 760 876 843T977 1079Q977 1196 912 1249T698 1303H543L426 760ZM393 604L266 0H84L393 1462H715Q1165 1462 1165 1092Q1165 748 801 645L1042 0H842L633 604H393Z" />
<glyph unicode="S" horiz-adv-x="1034" d="M915 424Q915 215 775 98T379 -20Q175 -20 39 45V225Q206 139 381 139Q537 139 630 211T723 410Q723 486 674 544T481 684Q329 773 272 859T215 1059Q215 1184 276 1280T448 1430T696 1483Q895 1483 1063 1397L993 1241Q929
1277 849 1299T696 1321Q567 1321 489 1254T410 1071Q410 993 449 942T618 815Q761 728 812 678T889 566T915 424Z" />
<glyph unicode="T" horiz-adv-x="1026" d="M496 0H311L586 1300H184L219 1462H1206L1174 1300H772L496 0Z" />
<glyph unicode="U" horiz-adv-x="1386" d="M1409 1462L1204 498Q1148 231 1003 106T614 -20Q385 -20 274 85T162 385Q162 462 186 580L375 1462H557L367 569Q358 533 351 478T344 387Q344 271 414 206T625 141Q794 141 887 227T1024 512L1227 1462H1409Z" />
<glyph unicode="V" horiz-adv-x="1130" d="M483 207Q540 343 641 539L1116 1462H1319L541 0H346L188 1462H369L461 537Q480 362 480 247L479 207H483Z" />
<glyph unicode="W" horiz-adv-x="1753" d="M1022 1227Q1003 1167 968 1084T469 0H281L219 1462H399L428 571L430 485Q430 381 420 225H426Q526 491 580 602L981 1462H1167L1208 606Q1218 446 1218 309L1217 225H1223Q1315 485 1354 578L1737 1462H1931L1268 0H1081L1036
942Q1028 1078 1028 1227H1022Z" />
<glyph unicode="X" horiz-adv-x="1079" d="M971 0H778L569 633L94 0H-106L489 774L229 1462H414L612 903L1047 1462H1247L694 766L971 0Z" />
<glyph unicode="Y" horiz-adv-x="1042" d="M545 729L1024 1462H1231L604 543L492 0H307L426 549L188 1462H371L545 729Z" />
<glyph unicode="Z" horiz-adv-x="1087" d="M889 0H-20L8 143L920 1298H274L309 1462H1174L1147 1317L236 164H922L889 0Z" />
<glyph unicode="[" horiz-adv-x="594" d="M377 -324H-18L362 1462H758L725 1315H500L184 -176H410L377 -324Z" />
<glyph unicode="\" horiz-adv-x="729" d="M385 1462L602 0H438L221 1462H385Z" />
<glyph unicode="]" horiz-adv-x="594" d="M-117 -176H109L424 1315H199L231 1462H627L246 -324H-147L-117 -176Z" />
<glyph unicode="^" horiz-adv-x="1128" d="M84 551L682 1473H795L1063 551H909L711 1286L250 551H84Z" />
<glyph unicode="_" horiz-adv-x="809" d="M625 -324H-188L-158 -184H655L625 -324Z" />
<glyph unicode="`" horiz-adv-x="1135" d="M905 1241H795Q729 1307 662 1400T569 1548V1569H762Q803 1434 905 1266V1241Z" />
<glyph unicode="a" horiz-adv-x="1163" d="M395 -20Q258 -20 178 78T98 354Q98 559 168 736T363 1016T637 1118Q730 1118 800 1069T913 928H924L989 1098H1126L893 0H750L776 203H768Q595 -20 395 -20ZM455 129Q549 129 643 219T795 453T852 748Q852 846 798 906T655
967Q554 967 468 883T332 655T283 350Q283 239 328 184T455 129Z" />
<glyph unicode="b" horiz-adv-x="1186" d="M551 -20Q456 -20 382 29T270 168H260L193 0H57L387 1556H567L489 1188Q471 1099 446 1003T414 893H422Q524 1017 609 1066T784 1116Q926 1116 1005 1019T1085 743Q1085 536 1017 359T827 81T551 -20ZM727 967Q632 967
536 873T384 636T328 350Q328 246 381 188T537 129Q635 129 719 211T852 438T901 745Q901 967 727 967Z" />
<glyph unicode="c" horiz-adv-x="928" d="M506 -20Q312 -20 205 87T98 389Q98 592 171 760T375 1023T672 1118Q819 1118 944 1065L893 915Q778 967 674 967Q564 967 474 891T333 682T283 391Q283 266 346 198T524 129Q597 129 661 149T788 197V45Q660 -20 506 -20Z" />
<glyph unicode="d" horiz-adv-x="1186" d="M395 -20Q257 -20 178 77T98 354Q98 563 168 741T361 1017T637 1116Q827 1116 913 928H924Q946 1099 969 1198L1044 1556H1223L893 0H745L768 203H760Q664 84 577 32T395 -20ZM457 129Q550 129 646 222T798 457T854 745Q854
853 802 910T649 967Q550 967 466 884T333 656T283 350Q283 129 457 129Z" />
<glyph unicode="e" horiz-adv-x="1022" d="M637 969Q534 969 443 873T311 621H326Q544 621 664 679T784 848Q784 901 748 935T637 969ZM496 -20Q310 -20 204 89T98 393Q98 581 171 752T370 1020T647 1118Q803 1118 882 1051T961 862Q961 680 793 578T319 475H285L281
399Q281 273 341 201T528 129Q605 129 675 151T827 213V59Q728 13 654 -3T496 -20Z" />
<glyph unicode="f" horiz-adv-x="651" d="M-98 -492Q-168 -492 -229 -471V-319Q-167 -342 -115 -342Q-45 -342 -2 -286T66 -109L291 961H100L115 1036L319 1104L342 1202Q388 1404 471 1485T715 1567Q812 1567 907 1528L860 1391Q786 1419 723 1419Q635 1419 591
1369T522 1202L498 1098H733L707 961H471L242 -129Q202 -318 119 -405T-98 -492Z" />
<glyph unicode="g" horiz-adv-x="1186" d="M457 129Q547 129 642 220T794 455T852 745Q852 967 651 967Q550 967 465 883T332 653T283 350Q283 129 457 129ZM381 -492Q184 -492 51 -422V-256Q114 -294 207 -318T375 -342Q508 -342 587 -278T698 -76L749 134L768
203H760Q669 86 580 33T397 -20Q258 -20 178 78T98 354Q98 569 171 747T365 1022T637 1118Q828 1118 915 928H924L991 1098H1128L879 -63Q832 -283 711 -387T381 -492Z" />
<glyph unicode="h" horiz-adv-x="1186" d="M905 0H725L870 688Q889 777 889 823Q889 967 745 967Q658 967 576 908T432 738T338 473L238 0H57L387 1556H567L479 1153Q467 1091 449 1025T414 893H424Q513 1010 603 1063T795 1116Q927 1116 999 1045T1071 836Q1071
780 1049 668L905 0Z" />
<glyph unicode="i" horiz-adv-x="528" d="M238 0H57L291 1098H471L238 0ZM338 1376Q338 1433 371 1470T459 1507Q553 1507 553 1415Q553 1355 518 1318T436 1280Q393 1280 366 1305T338 1376Z" />
<glyph unicode="j" horiz-adv-x="528" d="M-131 -492Q-204 -492 -258 -471V-319Q-200 -342 -139 -342Q-14 -342 29 -141L291 1098H469L203 -158Q166 -334 85 -413T-131 -492ZM338 1376Q338 1433 371 1470T459 1507Q551 1507 551 1415Q551 1355 516 1318T434 1280Q392
1280 365 1305T338 1376Z" />
<glyph unicode="k" horiz-adv-x="1014" d="M862 1098H1075L604 627L897 0H698L467 514L319 397L238 0H55L385 1556H567Q479 1146 432 925T338 567H342L862 1098Z" />
<glyph unicode="l" horiz-adv-x="528" d="M236 0H55L387 1556H567L236 0Z" />
<glyph unicode="m" horiz-adv-x="1792" d="M778 1118Q891 1118 952 1054T1026 874H1034Q1202 1118 1411 1118Q1539 1118 1608 1049T1677 848Q1677 760 1655 668L1513 0H1331L1479 688Q1497 782 1497 831Q1497 893 1464 930T1358 967Q1280 967 1204 910T1069 746T979
496L874 0H694L840 688Q858 782 858 823Q858 967 725 967Q643 967 566 908T430 738T338 473L238 0H57L291 1098H438L416 895H426Q494 985 543 1026T651 1092T778 1118Z" />
<glyph unicode="n" horiz-adv-x="1186" d="M905 0H725L870 688Q891 787 891 829Q891 892 856 929T745 967Q659 967 578 908T433 738T338 473L238 0H57L291 1098H438L416 895H426Q493 981 546 1024T662 1092T795 1118Q924 1118 997 1048T1071 848Q1071 770 1049
668L905 0Z" />
<glyph unicode="o" horiz-adv-x="1153" d="M872 709Q872 824 812 893T649 963Q543 963 458 889T327 685T281 399Q281 271 342 202T518 133Q618 133 699 204T826 407T872 709ZM1057 688Q1057 498 985 332T789 75T508 -16Q316 -16 207 98T98 406Q98 598 172 766T369
1023T647 1112Q838 1112 947 999T1057 688Z" />
<glyph unicode="p" horiz-adv-x="1186" d="M788 1116Q930 1116 1007 1016T1085 741Q1085 528 1015 352T824 78T551 -20Q359 -20 270 168H260Q244 31 233 -18L133 -492H-45L291 1098H438L414 893H422Q517 1011 606 1063T788 1116ZM727 967Q634 967 539 876T386
641T328 350Q328 246 381 188T537 129Q635 129 719 211T852 438T901 745Q901 967 727 967Z" />
<glyph unicode="q" horiz-adv-x="1186" d="M397 -20Q256 -20 177 78T98 354Q98 561 168 740T361 1018T639 1118Q732 1118 802 1069T913 928H924L991 1098H1126L788 -492H610L709 -25Q733 80 768 203H760Q669 86 580 33T397 -20ZM457 129Q547 129 640 218T793 451T852
745Q852 848 800 907T651 967Q554 967 470 886T335 660T283 350Q283 129 457 129Z" />
<glyph unicode="r" horiz-adv-x="815" d="M760 1118Q830 1118 879 1104L840 942Q784 954 735 954Q645 954 566 896T429 732T344 502L238 0H57L291 1098H438L416 895H426Q499 991 546 1032T645 1095T760 1118Z" />
<glyph unicode="s" horiz-adv-x="885" d="M743 317Q743 158 632 69T317 -20Q137 -20 10 49V215Q75 175 154 151T311 127Q433 127 496 174T559 299Q559 354 525 393T375 498Q246 570 193 641T139 807Q139 947 241 1032T512 1118Q682 1118 844 1042L786 899Q733
924 667 945T512 967Q424 967 372 926T319 817Q319 762 355 724T500 625Q613 558 655 517T720 427T743 317Z" />
<glyph unicode="t" horiz-adv-x="680" d="M406 127Q468 127 551 154V16Q523 2 471 -9T379 -20Q251 -20 184 40T117 219Q117 283 135 365L260 961H90L106 1042L291 1120L418 1348H524L469 1098H745L717 961H442L315 362Q297 281 297 240Q297 192 322 160T406 127Z" />
<glyph unicode="u" horiz-adv-x="1186" d="M279 1098H461L313 408Q295 318 295 270Q295 129 438 129Q525 129 606 188T752 359T848 625L948 1098H1126L893 0H745L768 203H758Q668 85 577 33T387 -20Q259 -20 186 51T113 252Q113 316 135 428L279 1098Z" />
<glyph unicode="v" horiz-adv-x="956" d="M369 137Q482 389 539 494L862 1098H1055L461 0H225L98 1098H279L340 487Q349 395 355 286T362 137H369Z" />
<glyph unicode="w" horiz-adv-x="1481" d="M793 924L742 801L662 614L375 0H162L117 1098H293L311 410Q311 341 301 158H309Q320 188 359 285T433 457T731 1098H926L961 510L965 262V203L963 158H971Q1023 314 1128 559L1368 1098H1559L1051 0H834L803 594L801
737V924H793Z" />
<glyph unicode="x" horiz-adv-x="989" d="M399 565L162 1098H344L514 692L836 1098H1044L588 557L840 0H657L471 426L133 0H-76L399 565Z" />
<glyph unicode="y" horiz-adv-x="956" d="M98 1098H279L350 555Q361 480 369 361T377 147H383Q409 213 461 326T543 496L862 1098H1055L358 -184Q268 -354 174 -423T-51 -492Q-130 -492 -193 -471V-326Q-130 -344 -61 -344Q21 -344 80 -293T193 -143L264 -16L98 1098Z" />
<glyph unicode="z" horiz-adv-x="911" d="M696 0H-31L-6 123L676 963H205L233 1098H899L870 952L201 135H723L696 0Z" />
<glyph unicode="{" horiz-adv-x="717" d="M231 367Q231 510 23 510L57 659Q175 659 246 702T340 850L408 1171Q441 1330 524 1396T782 1462H819L788 1313Q686 1313 640 1278T573 1155L502 836Q475 715 411 654T242 575V571Q395 531 395 358Q395 301 377 229L332
20Q317 -45 317 -74Q317 -126 353 -150T471 -174V-324H444Q147 -324 147 -98Q147 -48 168 41L217 256Q231 331 231 367Z" />
<glyph unicode="|" horiz-adv-x="1128" d="M532 1556H680V-494H532V1556Z" />
<glyph unicode="}" horiz-adv-x="717" d="M283 1462Q584 1462 584 1237Q584 1187 563 1098L514 881Q498 796 498 772Q498 629 707 629L674 479Q555 479 484 436T391 289L324 -33Q289 -194 206 -259T-61 -324H-76V-174Q37 -174 88 -138T158 -16L229 303Q256 422
319 482T489 561V567Q338 609 338 778Q338 835 356 907L403 1118Q418 1174 418 1212Q418 1264 377 1288T240 1313L270 1462H283Z" />
<glyph unicode="~" horiz-adv-x="1128" d="M348 709Q294 709 230 675T115 588V748Q214 856 358 856Q428 856 488 841T629 791Q706 758 749 747T838 735Q893 735 957 768T1073 856V698Q973 588 829 588Q759 588 698 604T559 653Q482 686 440 697T348 709Z" />
<glyph unicode="&#xa0;" horiz-adv-x="532" />
<glyph unicode="&#xa1;" horiz-adv-x="535" d="M254 678H373L199 -373H-20L254 678ZM502 1008Q502 938 462 890T352 842Q301 842 274 869T246 948Q246 1024 288 1071T401 1118Q448 1118 475 1090T502 1008Z" />
<glyph unicode="&#xa2;" horiz-adv-x="1128" d="M582 -20H451L494 195Q362 229 291 331T219 590Q219 775 282 934T461 1192T723 1315L756 1483H885L848 1315Q975 1304 1067 1266L1016 1116Q903 1167 797 1167Q687 1167 597 1092T455 883T403 592Q403 467 468 398T647
328Q761 328 909 397V244Q786 182 623 178L582 -20Z" />
<glyph unicode="&#xa3;" horiz-adv-x="1128" d="M844 1481Q1027 1481 1184 1395L1114 1253Q970 1331 840 1331Q734 1331 672 1273T584 1100L516 782H881L852 647H487L442 440Q421 338 376 272T250 164H969L934 0H-23L6 152Q211 198 264 438L309 647H109L137 782H338L410
1124Q447 1297 555 1389T844 1481Z" />
<glyph unicode="&#xa4;" horiz-adv-x="1128" d="M225 723Q225 836 293 936L164 1065L260 1163L387 1034Q490 1102 602 1102Q714 1102 815 1034L944 1163L1042 1067L913 938Q981 830 981 723Q981 607 913 508L1040 381L944 285L815 412Q719 346 602 346Q486 346
387 414L260 287L166 383L293 510Q225 606 225 723ZM362 723Q362 624 431 554T602 483Q705 483 776 552T848 723Q848 826 776 896T602 967Q502 967 432 895T362 723Z" />
<glyph unicode="&#xa5;" horiz-adv-x="1128" d="M584 729L1065 1462H1262L733 694H961L932 557H639L606 399H899L870 262H580L522 0H356L412 262H123L154 399H440L473 557H184L215 694H438L236 1462H412L584 729Z" />
<glyph unicode="&#xa6;" horiz-adv-x="1128" d="M532 1556H680V776H532V1556ZM532 287H680V-494H532V287Z" />
<glyph unicode="&#xa7;" horiz-adv-x="995" d="M172 770Q172 970 406 1075Q289 1148 289 1278Q289 1406 394 1486T676 1567Q861 1567 999 1497L944 1368Q793 1430 676 1430Q579 1430 520 1391T461 1284Q461 1235 499 1200T657 1112Q794 1052 850 983T907 823Q907
727 848 644T678 506Q791 432 791 315Q791 163 675 77T354 -10Q173 -10 55 53V207Q111 175 195 151T354 127Q484 127 552 171T621 297Q621 341 581 378T422 471Q289 529 231 598T172 770ZM514 1006Q436 982 384 922T332 791Q332 724 380 678T575 567Q652 609 697
670T743 799Q743 861 691 907T514 1006Z" />
<glyph unicode="&#xa8;" horiz-adv-x="1135" d="M451 1378Q451 1429 480 1462T559 1495Q641 1495 641 1413Q641 1364 613 1328T539 1292Q500 1292 476 1314T451 1378ZM819 1378Q819 1430 849 1462T928 1495Q970 1495 990 1473T1010 1413Q1010 1361 980 1327T905
1292Q868 1292 844 1314T819 1378Z" />
<glyph unicode="&#xa9;" horiz-adv-x="1704" d="M928 1055Q806 1055 740 971T674 731Q674 406 928 406Q1021 406 1141 451V322Q1076 294 1027 283T920 272Q730 272 623 392T516 731Q516 940 626 1064T930 1188Q1056 1188 1182 1126L1120 1001Q1012 1055 928 1055ZM137
731Q137 931 237 1106T512 1382T889 1483Q1086 1483 1259 1386T1536 1114T1640 731Q1640 527 1540 355T1267 81T889 -20Q682 -20 507 83T235 360T137 731ZM246 731Q246 559 332 410T567 175T889 88Q1062 88 1210 173T1446 407T1534 731Q1534 906 1447 1054T1211
1288T889 1374Q717 1374 568 1288T333 1053T246 731Z" />
<glyph unicode="&#xaa;" horiz-adv-x="694" d="M348 784Q268 784 218 846T168 1014Q168 1140 210 1248T327 1418T498 1479Q612 1479 651 1376H659L696 1466H788L647 797H551L565 911H559Q508 842 458 813T348 784ZM387 893Q447 893 498 939T581 1073T614 1243Q614
1303 587 1337T502 1372Q443 1372 395 1326T318 1198T289 1028Q289 893 387 893Z" />
<glyph unicode="&#xab;" horiz-adv-x="977" d="M86 582L479 965L567 877L272 549L440 164L315 111L86 555V582ZM489 543L860 954L956 877L674 514L829 164L705 111L489 514V543Z" />
<glyph unicode="&#xac;" horiz-adv-x="1128" d="M1049 262H901V647H125V797H1049V262Z" />
<glyph unicode="&#xad;" horiz-adv-x="641" d="M53 465L90 631H573L537 465H53Z" />
<glyph unicode="&#xae;" horiz-adv-x="1704" d="M137 731Q137 931 237 1106T512 1382T889 1483Q1086 1483 1259 1386T1536 1114T1640 731Q1640 527 1540 355T1267 81T889 -20Q682 -20 507 83T235 360T137 731ZM246 731Q246 559 332 410T567 175T889 88Q1062 88
1210 173T1446 407T1534 731Q1534 906 1447 1054T1211 1288T889 1374Q717 1374 568 1288T333 1053T246 731ZM1198 913Q1198 836 1151 773T1018 674L1243 291H1083L883 639H774V291H639V1171H874Q1039 1171 1118 1107T1198 913ZM774 762H862Q1055 762 1055 909Q1055
984 1007 1014T862 1044H774V762Z" />
<glyph unicode="&#xaf;" horiz-adv-x="805" d="M1014 1556H207L240 1694H1049L1014 1556Z" />
<glyph unicode="&#xb0;" horiz-adv-x="877" d="M211 1167Q211 1298 303 1390T524 1483Q608 1483 681 1441T797 1325T840 1167Q840 1038 747 947T524 856Q395 856 303 946T211 1167ZM330 1167Q330 1087 387 1031T524 975Q602 975 659 1031T717 1167Q717 1249 661
1306T524 1364Q444 1364 387 1307T330 1167Z" />
<glyph unicode="&#xb1;" horiz-adv-x="1128" d="M512 647H125V797H512V1186H662V797H1049V647H662V262H512V647ZM125 0V147H1049V0H125Z" />
<glyph unicode="&#xb2;" horiz-adv-x="723" d="M662 586H92L117 698L381 924Q532 1055 575 1119T618 1249Q618 1300 589 1331T502 1362Q407 1362 307 1282L244 1378Q371 1481 526 1481Q634 1481 698 1424T762 1272Q762 1175 710 1093T510 889L297 711H688L662 586Z" />
<glyph unicode="&#xb3;" horiz-adv-x="723" d="M762 1274Q762 1097 553 1042V1034Q624 1017 662 967T700 848Q700 718 608 644T352 569Q225 569 117 625V758Q242 686 356 686Q460 686 509 730T559 852Q559 983 387 983H293L317 1096H412Q506 1096 563 1135T621
1245Q621 1304 588 1333T497 1362Q395 1362 301 1294L244 1393Q358 1481 516 1481Q633 1481 697 1425T762 1274Z" />
<glyph unicode="&#xb4;" horiz-adv-x="1135" d="M528 1268Q579 1323 646 1411T758 1569H963V1548Q916 1491 815 1393T641 1241H528V1268Z" />
<glyph unicode="&#xb5;" horiz-adv-x="1198" d="M307 274Q307 129 451 129Q535 129 616 187T760 355T858 621L963 1098H1139L905 0H758L780 203H770Q676 81 589 31T408 -20Q295 -20 246 74H238L197 -176L131 -492H-45L291 1098H471L326 408Q307 320 307 274Z" />
<glyph unicode="&#xb6;" horiz-adv-x="1341" d="M1206 -260H1087V1397H879V-260H760V559Q698 541 614 541Q400 541 298 664T195 1042Q195 1302 304 1429T645 1556H1206V-260Z" />
<glyph unicode="&#xb7;" horiz-adv-x="524" d="M166 690Q166 766 208 813T324 860Q369 860 396 833T424 751Q424 679 383 631T272 583Q221 583 194 611T166 690Z" />
<glyph unicode="&#xb8;" horiz-adv-x="420" d="M215 -274Q215 -373 135 -432T-82 -492Q-137 -492 -174 -481V-375Q-142 -383 -100 -383Q68 -383 68 -274Q68 -237 38 -214T-70 -180L29 0H143L84 -117Q215 -155 215 -274Z" />
<glyph unicode="&#xb9;" horiz-adv-x="723" d="M537 1462H664L477 586H332L440 1100L498 1323L410 1247L303 1178L246 1274L537 1462Z" />
<glyph unicode="&#xba;" horiz-adv-x="694" d="M752 1217Q752 1093 712 994T596 840T418 784Q302 784 235 855T168 1053Q168 1172 210 1270T329 1423T506 1479Q625 1479 688 1410T752 1217ZM502 1370Q405 1370 347 1284T289 1057Q289 973 325 932T428 891Q521
891 577 982T633 1210Q633 1370 502 1370Z" />
<glyph unicode="&#xbb;" horiz-adv-x="977" d="M891 489L498 111L410 199L705 524L537 911L662 965L891 518V489ZM487 528L117 123L20 199L303 557L147 911L272 965L487 559V528Z" />
<glyph unicode="&#xbc;" horiz-adv-x="1544" d="M1374 1462L288 0H126L1212 1462H1374ZM741 1462H868L681 586H536L644 1100L702 1323L614 1247L507 1178L450 1274L741 1462ZM1350 199H1221L1180 1H1043L1084 199H719L742 306L1223 883H1368L1247 320H1372L1350
199ZM1110 320Q1181 648 1198 707Q1170 655 1090 562L889 320H1110Z" />
<glyph unicode="&#xbd;" horiz-adv-x="1544" d="M1323 1462L237 0H75L1161 1462H1323ZM690 1462H817L630 586H485L593 1100L651 1323L563 1247L456 1178L399 1274L690 1462ZM1367 1H797L822 113L1086 339Q1237 470 1280 534T1323 664Q1323 715 1294 746T1207 777Q1112
777 1012 697L949 793Q1076 896 1231 896Q1339 896 1403 839T1467 687Q1467 590 1415 508T1215 304L1002 126H1393L1367 1Z" />
<glyph unicode="&#xbe;" horiz-adv-x="1587" d="M992 1274Q992 1097 783 1042V1034Q854 1017 892 967T930 848Q930 718 838 644T582 569Q455 569 347 625V758Q472 686 586 686Q690 686 739 730T789 852Q789 983 617 983H523L547 1096H642Q736 1096 793 1135T851
1245Q851 1304 818 1333T727 1362Q625 1362 531 1294L474 1393Q588 1481 746 1481Q863 1481 927 1425T992 1274ZM1522 1462L436 0H274L1360 1462H1522ZM1491 199H1362L1321 1H1184L1225 199H860L883 306L1364 883H1509L1388 320H1513L1491 199ZM1251 320Q1322 648
1339 707Q1311 655 1231 562L1030 320H1251Z" />
<glyph unicode="&#xbf;" horiz-adv-x="881" d="M659 674Q638 544 587 460T420 285Q371 246 326 210T247 135T193 49T172 -55Q172 -143 221 -192T365 -242Q426 -242 494 -223T659 -158L725 -297Q530 -399 344 -399Q176 -399 83 -316T-10 -76Q-10 47 56 150T283
371Q407 462 448 515T512 674H659ZM762 1008Q762 929 720 883T604 836Q559 836 532 863T504 944Q504 1019 546 1065T655 1112Q705 1112 733 1086T762 1008Z" />
<glyph unicode="&#xc0;" d="M815 455H322L84 0H-117L678 1462H870L1051 0H870L815 455ZM797 618L764 924Q737 1151 737 1268Q705 1191 667 1114T410 618H797ZM871 1579H761Q695 1645 628 1738T535 1886V1907H728Q769 1772 871 1604V1579Z" />
<glyph unicode="&#xc1;" d="M815 455H322L84 0H-117L678 1462H870L1051 0H870L815 455ZM797 618L764 924Q737 1151 737 1268Q705 1191 667 1114T410 618H797ZM686 1606Q737 1661 804 1749T916 1907H1121V1886Q1074 1829 973 1731T799 1579H686V1606Z" />
<glyph unicode="&#xc2;" d="M815 455H322L84 0H-117L678 1462H870L1051 0H870L815 455ZM797 618L764 924Q737 1151 737 1268Q705 1191 667 1114T410 618H797ZM1094 1579H981Q925 1627 820 1765Q693 1652 580 1579H461V1606Q699 1826 748 1907H922Q956 1815 1052
1672L1094 1606V1579Z" />
<glyph unicode="&#xc3;" d="M815 455H322L84 0H-117L678 1462H870L1051 0H870L815 455ZM797 618L764 924Q737 1151 737 1268Q705 1191 667 1114T410 618H797ZM940 1581Q899 1581 862 1598T790 1637T722 1676T655 1694Q612 1694 587 1665T540 1579H434Q491 1841
669 1841Q714 1841 753 1824T828 1785T894 1747T952 1729Q994 1729 1020 1754T1071 1843H1179Q1109 1581 940 1581Z" />
<glyph unicode="&#xc4;" d="M815 455H322L84 0H-117L678 1462H870L1051 0H870L815 455ZM797 618L764 924Q737 1151 737 1268Q705 1191 667 1114T410 618H797ZM521 1716Q521 1767 550 1800T629 1833Q711 1833 711 1751Q711 1702 683 1666T609 1630Q570 1630 546
1652T521 1716ZM889 1716Q889 1768 919 1800T998 1833Q1040 1833 1060 1811T1080 1751Q1080 1699 1050 1665T975 1630Q938 1630 914 1652T889 1716Z" />
<glyph unicode="&#xc5;" d="M999 1583Q999 1509 967 1459T879 1386L1051 0H870L815 455H322L84 0H-117L643 1401Q555 1455 555 1581Q555 1678 617 1736T776 1794Q876 1794 937 1737T999 1583ZM797 618Q747 1079 742 1146T737 1268Q705 1191 667 1114T410 618H797ZM891
1581Q891 1634 859 1664T776 1694Q728 1694 696 1664T664 1581Q664 1528 693 1498T776 1468Q827 1468 859 1498T891 1581Z" />
<glyph unicode="&#xc6;" horiz-adv-x="1688" d="M1460 0H717L813 455H375L90 0H-119L817 1462H1769L1737 1300H1176L1077 844H1602L1571 684H1047L936 162H1495L1460 0ZM846 618L991 1300H907L479 618H846Z" />
<glyph unicode="&#xc7;" horiz-adv-x="1202" d="M938 1321Q763 1321 629 1222T419 940T342 543Q342 356 437 249T700 141Q844 141 1024 201V41Q861 -20 668 -20Q423 -20 285 129T147 539Q147 796 251 1020T534 1364T938 1483Q1144 1483 1294 1401L1221 1249Q1082
1321 938 1321ZM764 -274Q764 -373 684 -432T467 -492Q412 -492 375 -481V-375Q407 -383 449 -383Q617 -383 617 -274Q617 -237 587 -214T479 -180L578 0H692L633 -117Q764 -155 764 -274Z" />
<glyph unicode="&#xc8;" horiz-adv-x="1053" d="M825 0H84L393 1462H1135L1100 1300H541L444 844H967L936 684H412L299 162H860L825 0ZM898 1579H788Q722 1645 655 1738T562 1886V1907H755Q796 1772 898 1604V1579Z" />
<glyph unicode="&#xc9;" horiz-adv-x="1053" d="M825 0H84L393 1462H1135L1100 1300H541L444 844H967L936 684H412L299 162H860L825 0ZM653 1606Q704 1661 771 1749T883 1907H1088V1886Q1041 1829 940 1731T766 1579H653V1606Z" />
<glyph unicode="&#xca;" horiz-adv-x="1053" d="M825 0H84L393 1462H1135L1100 1300H541L444 844H967L936 684H412L299 162H860L825 0ZM1092 1579H979Q923 1627 818 1765Q691 1652 578 1579H459V1606Q697 1826 746 1907H920Q954 1815 1050 1672L1092 1606V1579Z" />
<glyph unicode="&#xcb;" horiz-adv-x="1053" d="M825 0H84L393 1462H1135L1100 1300H541L444 844H967L936 684H412L299 162H860L825 0ZM514 1716Q514 1767 543 1800T622 1833Q704 1833 704 1751Q704 1702 676 1666T602 1630Q563 1630 539 1652T514 1716ZM882 1716Q882
1768 912 1800T991 1833Q1033 1833 1053 1811T1073 1751Q1073 1699 1043 1665T968 1630Q931 1630 907 1652T882 1716Z" />
<glyph unicode="&#xcc;" horiz-adv-x="664" d="M471 0H-41L-20 100L154 141L403 1321L248 1360L268 1462H780L760 1360L584 1321L334 141L492 100L471 0ZM640 1579H530Q464 1645 397 1738T304 1886V1907H497Q538 1772 640 1604V1579Z" />
<glyph unicode="&#xcd;" horiz-adv-x="664" d="M471 0H-41L-20 100L154 141L403 1321L248 1360L268 1462H780L760 1360L584 1321L334 141L492 100L471 0ZM453 1606Q504 1661 571 1749T683 1907H888V1886Q841 1829 740 1731T566 1579H453V1606Z" />
<glyph unicode="&#xce;" horiz-adv-x="664" d="M471 0H-41L-20 100L154 141L403 1321L248 1360L268 1462H780L760 1360L584 1321L334 141L492 100L471 0ZM853 1579H740Q684 1627 579 1765Q452 1652 339 1579H220V1606Q458 1826 507 1907H681Q715 1815 811 1672L853
1606V1579Z" />
<glyph unicode="&#xcf;" horiz-adv-x="664" d="M471 0H-41L-20 100L154 141L403 1321L248 1360L268 1462H780L760 1360L584 1321L334 141L492 100L471 0ZM284 1716Q284 1767 313 1800T392 1833Q474 1833 474 1751Q474 1702 446 1666T372 1630Q333 1630 309 1652T284
1716ZM652 1716Q652 1768 682 1800T761 1833Q803 1833 823 1811T843 1751Q843 1699 813 1665T738 1630Q701 1630 677 1652T652 1716Z" />
<glyph unicode="&#xd0;" horiz-adv-x="1366" d="M1303 879Q1303 617 1199 417T900 108T444 0H84L217 645H68L102 803H252L393 1462H739Q1015 1462 1159 1313T1303 879ZM455 158Q653 158 802 248T1030 503T1110 881Q1110 1090 1010 1197T717 1305H543L436 803H758L723
645H401L299 158H455Z" />
<glyph unicode="&#xd1;" horiz-adv-x="1448" d="M1149 0H954L502 1212H496Q475 1040 422 795L254 0H82L391 1462H586L1034 254H1040Q1053 347 1075 471T1112 657L1284 1462H1458L1149 0ZM1102 1581Q1061 1581 1024 1598T952 1637T884 1676T817 1694Q774 1694 749
1665T702 1579H596Q653 1841 831 1841Q876 1841 915 1824T990 1785T1056 1747T1114 1729Q1156 1729 1182 1754T1233 1843H1341Q1271 1581 1102 1581Z" />
<glyph unicode="&#xd2;" horiz-adv-x="1477" d="M1413 909Q1413 634 1322 421T1068 94T690 -20Q433 -20 290 129T147 547Q147 809 242 1027T506 1365T887 1485Q1134 1485 1273 1332T1413 909ZM874 1323Q720 1323 598 1224T409 947T342 551Q342 356 437 249T696
141Q844 141 963 238T1150 515T1219 913Q1219 1105 1128 1214T874 1323ZM1011 1579H901Q835 1645 768 1738T675 1886V1907H868Q909 1772 1011 1604V1579Z" />
<glyph unicode="&#xd3;" horiz-adv-x="1477" d="M1413 909Q1413 634 1322 421T1068 94T690 -20Q433 -20 290 129T147 547Q147 809 242 1027T506 1365T887 1485Q1134 1485 1273 1332T1413 909ZM874 1323Q720 1323 598 1224T409 947T342 551Q342 356 437 249T696
141Q844 141 963 238T1150 515T1219 913Q1219 1105 1128 1214T874 1323ZM815 1606Q866 1661 933 1749T1045 1907H1250V1886Q1203 1829 1102 1731T928 1579H815V1606Z" />
<glyph unicode="&#xd4;" horiz-adv-x="1477" d="M1413 909Q1413 634 1322 421T1068 94T690 -20Q433 -20 290 129T147 547Q147 809 242 1027T506 1365T887 1485Q1134 1485 1273 1332T1413 909ZM874 1323Q720 1323 598 1224T409 947T342 551Q342 356 437 249T696
141Q844 141 963 238T1150 515T1219 913Q1219 1105 1128 1214T874 1323ZM1235 1579H1122Q1066 1627 961 1765Q834 1652 721 1579H602V1606Q840 1826 889 1907H1063Q1097 1815 1193 1672L1235 1606V1579Z" />
<glyph unicode="&#xd5;" horiz-adv-x="1477" d="M1413 909Q1413 634 1322 421T1068 94T690 -20Q433 -20 290 129T147 547Q147 809 242 1027T506 1365T887 1485Q1134 1485 1273 1332T1413 909ZM874 1323Q720 1323 598 1224T409 947T342 551Q342 356 437 249T696
141Q844 141 963 238T1150 515T1219 913Q1219 1105 1128 1214T874 1323ZM1067 1581Q1026 1581 989 1598T917 1637T849 1676T782 1694Q739 1694 714 1665T667 1579H561Q618 1841 796 1841Q841 1841 880 1824T955 1785T1021 1747T1079 1729Q1121 1729 1147 1754T1198
1843H1306Q1236 1581 1067 1581Z" />
<glyph unicode="&#xd6;" horiz-adv-x="1477" d="M1413 909Q1413 634 1322 421T1068 94T690 -20Q433 -20 290 129T147 547Q147 809 242 1027T506 1365T887 1485Q1134 1485 1273 1332T1413 909ZM874 1323Q720 1323 598 1224T409 947T342 551Q342 356 437 249T696
141Q844 141 963 238T1150 515T1219 913Q1219 1105 1128 1214T874 1323ZM656 1716Q656 1767 685 1800T764 1833Q846 1833 846 1751Q846 1702 818 1666T744 1630Q705 1630 681 1652T656 1716ZM1024 1716Q1024 1768 1054 1800T1133 1833Q1175 1833 1195 1811T1215
1751Q1215 1699 1185 1665T1110 1630Q1073 1630 1049 1652T1024 1716Z" />
<glyph unicode="&#xd7;" horiz-adv-x="1128" d="M481 723L164 1042L268 1147L586 827L907 1147L1010 1044L688 723L1008 403L907 301L586 621L268 303L166 406L481 723Z" />
<glyph unicode="&#xd8;" horiz-adv-x="1477" d="M1413 909Q1413 634 1322 421T1068 94T690 -20Q495 -20 360 74L233 -84L117 10L252 178Q147 318 147 547Q147 809 242 1027T506 1365T887 1485Q1077 1485 1214 1378L1343 1540L1462 1446L1315 1266Q1363 1203 1388
1110T1413 909ZM874 1325Q722 1325 599 1226T408 947T340 551Q340 424 379 336L1102 1241Q1010 1325 874 1325ZM1221 913Q1221 1022 1190 1106L469 211Q561 141 696 141Q848 141 968 241T1154 520T1221 913Z" />
<glyph unicode="&#xd9;" horiz-adv-x="1386" d="M1409 1462L1204 498Q1148 231 1003 106T614 -20Q385 -20 274 85T162 385Q162 462 186 580L375 1462H557L367 569Q358 533 351 478T344 387Q344 271 414 206T625 141Q794 141 887 227T1024 512L1227 1462H1409ZM991
1579H881Q815 1645 748 1738T655 1886V1907H848Q889 1772 991 1604V1579Z" />
<glyph unicode="&#xda;" horiz-adv-x="1386" d="M1409 1462L1204 498Q1148 231 1003 106T614 -20Q385 -20 274 85T162 385Q162 462 186 580L375 1462H557L367 569Q358 533 351 478T344 387Q344 271 414 206T625 141Q794 141 887 227T1024 512L1227 1462H1409ZM817
1606Q868 1661 935 1749T1047 1907H1252V1886Q1205 1829 1104 1731T930 1579H817V1606Z" />
<glyph unicode="&#xdb;" horiz-adv-x="1386" d="M1409 1462L1204 498Q1148 231 1003 106T614 -20Q385 -20 274 85T162 385Q162 462 186 580L375 1462H557L367 569Q358 533 351 478T344 387Q344 271 414 206T625 141Q794 141 887 227T1024 512L1227 1462H1409ZM1223
1579H1110Q1054 1627 949 1765Q822 1652 709 1579H590V1606Q828 1826 877 1907H1051Q1085 1815 1181 1672L1223 1606V1579Z" />
<glyph unicode="&#xdc;" horiz-adv-x="1386" d="M1409 1462L1204 498Q1148 231 1003 106T614 -20Q385 -20 274 85T162 385Q162 462 186 580L375 1462H557L367 569Q358 533 351 478T344 387Q344 271 414 206T625 141Q794 141 887 227T1024 512L1227 1462H1409ZM635
1716Q635 1767 664 1800T743 1833Q825 1833 825 1751Q825 1702 797 1666T723 1630Q684 1630 660 1652T635 1716ZM1003 1716Q1003 1768 1033 1800T1112 1833Q1154 1833 1174 1811T1194 1751Q1194 1699 1164 1665T1089 1630Q1052 1630 1028 1652T1003 1716Z" />
<glyph unicode="&#xdd;" horiz-adv-x="1042" d="M545 729L1024 1462H1231L604 543L492 0H307L426 549L188 1462H371L545 729ZM616 1606Q667 1661 734 1749T846 1907H1051V1886Q1004 1829 903 1731T729 1579H616V1606Z" />
<glyph unicode="&#xde;" horiz-adv-x="1161" d="M1110 827Q1110 579 946 448T463 317H334L266 0H84L393 1462H575L522 1208H670Q887 1208 998 1113T1110 827ZM365 473H494Q704 473 813 562T922 821Q922 944 853 997T645 1051H487L365 473Z" />
<glyph unicode="&#xdf;" horiz-adv-x="1196" d="M776 1567Q940 1567 1034 1495T1128 1294Q1128 1215 1086 1145T930 987L868 941Q760 861 760 795Q760 740 852 675Q955 602 1008 524T1061 354Q1061 179 951 80T653 -20Q478 -20 383 51V217Q426 182 493 155T631
127Q746 127 811 183T877 334Q877 395 849 439T743 545Q656 612 620 667T584 784Q584 838 603 881T654 961T778 1063Q855 1115 886 1146T935 1210T952 1282Q952 1346 900 1382T760 1419Q641 1419 575 1356T483 1167L211 -127Q171 -317 89 -404T-131 -492Q-202 -492
-256 -471V-317Q-204 -340 -145 -340Q-81 -340 -39 -294T27 -139L305 1167Q348 1370 462 1468T776 1567Z" />
<glyph unicode="&#xe0;" horiz-adv-x="1163" d="M395 -20Q258 -20 178 78T98 354Q98 559 168 736T363 1016T637 1118Q730 1118 800 1069T913 928H924L989 1098H1126L893 0H750L776 203H768Q595 -20 395 -20ZM455 129Q549 129 643 219T795 453T852 748Q852 846
798 906T655 967Q554 967 468 883T332 655T283 350Q283 239 328 184T455 129ZM1084 1241H974Q908 1307 841 1400T748 1548V1569H941Q982 1434 1084 1266V1241Z" />
<glyph unicode="&#xe1;" horiz-adv-x="1163" d="M395 -20Q258 -20 178 78T98 354Q98 559 168 736T363 1016T637 1118Q730 1118 800 1069T913 928H924L989 1098H1126L893 0H750L776 203H768Q595 -20 395 -20ZM455 129Q549 129 643 219T795 453T852 748Q852 846
798 906T655 967Q554 967 468 883T332 655T283 350Q283 239 328 184T455 129ZM600 1268Q651 1323 718 1411T830 1569H1035V1548Q988 1491 887 1393T713 1241H600V1268Z" />
<glyph unicode="&#xe2;" horiz-adv-x="1163" d="M395 -20Q258 -20 178 78T98 354Q98 559 168 736T363 1016T637 1118Q730 1118 800 1069T913 928H924L989 1098H1126L893 0H750L776 203H768Q595 -20 395 -20ZM455 129Q549 129 643 219T795 453T852 748Q852 846
798 906T655 967Q554 967 468 883T332 655T283 350Q283 239 328 184T455 129ZM1271 1241H1158Q1102 1289 997 1427Q870 1314 757 1241H638V1268Q876 1488 925 1569H1099Q1133 1477 1229 1334L1271 1268V1241Z" />
<glyph unicode="&#xe3;" horiz-adv-x="1163" d="M395 -20Q258 -20 178 78T98 354Q98 559 168 736T363 1016T637 1118Q730 1118 800 1069T913 928H924L989 1098H1126L893 0H750L776 203H768Q595 -20 395 -20ZM455 129Q549 129 643 219T795 453T852 748Q852 846
798 906T655 967Q554 967 468 883T332 655T283 350Q283 239 328 184T455 129ZM858 1243Q817 1243 780 1260T708 1299T640 1338T573 1356Q530 1356 505 1327T458 1241H352Q409 1503 587 1503Q632 1503 671 1486T746 1447T812 1409T870 1391Q912 1391 938 1416T989
1505H1097Q1027 1243 858 1243Z" />
<glyph unicode="&#xe4;" horiz-adv-x="1163" d="M395 -20Q258 -20 178 78T98 354Q98 559 168 736T363 1016T637 1118Q730 1118 800 1069T913 928H924L989 1098H1126L893 0H750L776 203H768Q595 -20 395 -20ZM455 129Q549 129 643 219T795 453T852 748Q852 846
798 906T655 967Q554 967 468 883T332 655T283 350Q283 239 328 184T455 129ZM704 1378Q704 1429 733 1462T812 1495Q894 1495 894 1413Q894 1364 866 1328T792 1292Q753 1292 729 1314T704 1378ZM1072 1378Q1072 1430 1102 1462T1181 1495Q1223 1495 1243 1473T1263
1413Q1263 1361 1233 1327T1158 1292Q1121 1292 1097 1314T1072 1378Z" />
<glyph unicode="&#xe5;" horiz-adv-x="1163" d="M395 -20Q258 -20 178 78T98 354Q98 559 168 736T363 1016T637 1118Q730 1118 800 1069T913 928H924L989 1098H1126L893 0H750L776 203H768Q595 -20 395 -20ZM455 129Q549 129 643 219T795 453T852 748Q852 846
798 906T655 967Q554 967 468 883T332 655T283 350Q283 239 328 184T455 129ZM1213 1458Q1213 1358 1151 1300T990 1241Q891 1241 830 1298T769 1456Q769 1553 831 1611T990 1669Q1090 1669 1151 1612T1213 1458ZM1105 1456Q1105 1509 1073 1539T990 1569Q942 1569
910 1539T877 1456Q877 1403 906 1373T990 1343Q1041 1343 1073 1373T1105 1456Z" />
<glyph unicode="&#xe6;" horiz-adv-x="1679" d="M1169 -20Q1061 -20 981 18T858 135L829 0H709L733 203H725Q621 77 539 29T362 -20Q239 -20 169 78T98 352Q98 559 169 738T360 1017T621 1118Q790 1118 870 928H881L948 1098H1063L1034 956Q1089 1032 1173 1075T1362
1118Q1484 1118 1559 1050T1634 862Q1634 679 1467 577T995 475H954L950 399Q950 273 1011 201T1202 129Q1261 129 1326 147T1499 213V55Q1335 -20 1169 -20ZM422 129Q514 129 605 218T753 454T811 748Q811 849 766 908T645 967Q547 967 464 882T332 654T283 352Q283
240 319 185T422 129ZM1327 969Q1214 969 1121 877T981 621H999Q1216 621 1336 678T1456 844Q1456 901 1422 935T1327 969Z" />
<glyph unicode="&#xe7;" horiz-adv-x="928" d="M506 -20Q312 -20 205 87T98 389Q98 592 171 760T375 1023T672 1118Q819 1118 944 1065L893 915Q778 967 674 967Q564 967 474 891T333 682T283 391Q283 266 346 198T524 129Q597 129 661 149T788 197V45Q660 -20
506 -20ZM596 -274Q596 -373 516 -432T299 -492Q244 -492 207 -481V-375Q239 -383 281 -383Q449 -383 449 -274Q449 -237 419 -214T311 -180L410 0H524L465 -117Q596 -155 596 -274Z" />
<glyph unicode="&#xe8;" horiz-adv-x="1022" d="M637 969Q534 969 443 873T311 621H326Q544 621 664 679T784 848Q784 901 748 935T637 969ZM496 -20Q310 -20 204 89T98 393Q98 581 171 752T370 1020T647 1118Q803 1118 882 1051T961 862Q961 680 793 578T319
475H285L281 399Q281 273 341 201T528 129Q605 129 675 151T827 213V59Q728 13 654 -3T496 -20ZM1039 1241H929Q863 1307 796 1400T703 1548V1569H896Q937 1434 1039 1266V1241Z" />
<glyph unicode="&#xe9;" horiz-adv-x="1022" d="M637 969Q534 969 443 873T311 621H326Q544 621 664 679T784 848Q784 901 748 935T637 969ZM496 -20Q310 -20 204 89T98 393Q98 581 171 752T370 1020T647 1118Q803 1118 882 1051T961 862Q961 680 793 578T319
475H285L281 399Q281 273 341 201T528 129Q605 129 675 151T827 213V59Q728 13 654 -3T496 -20ZM581 1268Q632 1323 699 1411T811 1569H1016V1548Q969 1491 868 1393T694 1241H581V1268Z" />
<glyph unicode="&#xea;" horiz-adv-x="1022" d="M637 969Q534 969 443 873T311 621H326Q544 621 664 679T784 848Q784 901 748 935T637 969ZM496 -20Q310 -20 204 89T98 393Q98 581 171 752T370 1020T647 1118Q803 1118 882 1051T961 862Q961 680 793 578T319
475H285L281 399Q281 273 341 201T528 129Q605 129 675 151T827 213V59Q728 13 654 -3T496 -20ZM1234 1241H1121Q1065 1289 960 1427Q833 1314 720 1241H601V1268Q839 1488 888 1569H1062Q1096 1477 1192 1334L1234 1268V1241Z" />
<glyph unicode="&#xeb;" horiz-adv-x="1022" d="M637 969Q534 969 443 873T311 621H326Q544 621 664 679T784 848Q784 901 748 935T637 969ZM496 -20Q310 -20 204 89T98 393Q98 581 171 752T370 1020T647 1118Q803 1118 882 1051T961 862Q961 680 793 578T319
475H285L281 399Q281 273 341 201T528 129Q605 129 675 151T827 213V59Q728 13 654 -3T496 -20ZM665 1378Q665 1429 694 1462T773 1495Q855 1495 855 1413Q855 1364 827 1328T753 1292Q714 1292 690 1314T665 1378ZM1033 1378Q1033 1430 1063 1462T1142 1495Q1184
1495 1204 1473T1224 1413Q1224 1361 1194 1327T1119 1292Q1082 1292 1058 1314T1033 1378Z" />
<glyph unicode="&#xec;" horiz-adv-x="528" d="M238 0H57L291 1098H471L238 0ZM498 1241H388Q322 1307 255 1400T162 1548V1569H355Q396 1434 498 1266V1241Z" />
<glyph unicode="&#xed;" horiz-adv-x="528" d="M238 0H57L291 1098H471L238 0ZM322 1268Q373 1323 440 1411T552 1569H757V1548Q710 1491 609 1393T435 1241H322V1268Z" />
<glyph unicode="&#xee;" horiz-adv-x="528" d="M238 0H57L291 1098H471L238 0ZM720 1241H607Q551 1289 446 1427Q319 1314 206 1241H87V1268Q325 1488 374 1569H548Q582 1477 678 1334L720 1268V1241Z" />
<glyph unicode="&#xef;" horiz-adv-x="528" d="M238 0H57L291 1098H471L238 0ZM157 1378Q157 1429 186 1462T265 1495Q347 1495 347 1413Q347 1364 319 1328T245 1292Q206 1292 182 1314T157 1378ZM525 1378Q525 1430 555 1462T634 1495Q676 1495 696 1473T716
1413Q716 1361 686 1327T611 1292Q574 1292 550 1314T525 1378Z" />
<glyph unicode="&#xf0;" horiz-adv-x="1167" d="M670 1333Q607 1390 526 1444L623 1567Q747 1484 815 1415L1073 1559L1139 1450L903 1319Q989 1206 1028 1082T1067 815Q1067 559 994 365T789 76T481 -20Q298 -20 193 82T88 375Q88 537 155 675T341 891T610 969Q713
969 788 925T899 803L905 805V821Q905 950 871 1050T762 1241L496 1094L436 1204L670 1333ZM492 129Q595 129 674 183T804 348T854 573Q854 685 792 753T618 821Q512 821 434 764T314 604T272 377Q272 255 328 192T492 129Z" />
<glyph unicode="&#xf1;" horiz-adv-x="1186" d="M905 0H725L870 688Q891 787 891 829Q891 892 856 929T745 967Q659 967 578 908T433 738T338 473L238 0H57L291 1098H438L416 895H426Q493 981 546 1024T662 1092T795 1118Q924 1118 997 1048T1071 848Q1071 770
1049 668L905 0ZM873 1243Q832 1243 795 1260T723 1299T655 1338T588 1356Q545 1356 520 1327T473 1241H367Q424 1503 602 1503Q647 1503 686 1486T761 1447T827 1409T885 1391Q927 1391 953 1416T1004 1505H1112Q1042 1243 873 1243Z" />
<glyph unicode="&#xf2;" horiz-adv-x="1153" d="M872 709Q872 824 812 893T649 963Q543 963 458 889T327 685T281 399Q281 271 342 202T518 133Q618 133 699 204T826 407T872 709ZM1057 688Q1057 498 985 332T789 75T508 -16Q316 -16 207 98T98 406Q98 598 172
766T369 1023T647 1112Q838 1112 947 999T1057 688ZM1058 1241H948Q882 1307 815 1400T722 1548V1569H915Q956 1434 1058 1266V1241Z" />
<glyph unicode="&#xf3;" horiz-adv-x="1153" d="M872 709Q872 824 812 893T649 963Q543 963 458 889T327 685T281 399Q281 271 342 202T518 133Q618 133 699 204T826 407T872 709ZM1057 688Q1057 498 985 332T789 75T508 -16Q316 -16 207 98T98 406Q98 598 172
766T369 1023T647 1112Q838 1112 947 999T1057 688ZM587 1268Q638 1323 705 1411T817 1569H1022V1548Q975 1491 874 1393T700 1241H587V1268Z" />
<glyph unicode="&#xf4;" horiz-adv-x="1153" d="M872 709Q872 824 812 893T649 963Q543 963 458 889T327 685T281 399Q281 271 342 202T518 133Q618 133 699 204T826 407T872 709ZM1057 688Q1057 498 985 332T789 75T508 -16Q316 -16 207 98T98 406Q98 598 172
766T369 1023T647 1112Q838 1112 947 999T1057 688ZM1263 1241H1150Q1094 1289 989 1427Q862 1314 749 1241H630V1268Q868 1488 917 1569H1091Q1125 1477 1221 1334L1263 1268V1241Z" />
<glyph unicode="&#xf5;" horiz-adv-x="1153" d="M872 709Q872 824 812 893T649 963Q543 963 458 889T327 685T281 399Q281 271 342 202T518 133Q618 133 699 204T826 407T872 709ZM1057 688Q1057 498 985 332T789 75T508 -16Q316 -16 207 98T98 406Q98 598 172
766T369 1023T647 1112Q838 1112 947 999T1057 688ZM846 1243Q805 1243 768 1260T696 1299T628 1338T561 1356Q518 1356 493 1327T446 1241H340Q397 1503 575 1503Q620 1503 659 1486T734 1447T800 1409T858 1391Q900 1391 926 1416T977 1505H1085Q1015 1243 846
1243Z" />
<glyph unicode="&#xf6;" horiz-adv-x="1153" d="M872 709Q872 824 812 893T649 963Q543 963 458 889T327 685T281 399Q281 271 342 202T518 133Q618 133 699 204T826 407T872 709ZM1057 688Q1057 498 985 332T789 75T508 -16Q316 -16 207 98T98 406Q98 598 172
766T369 1023T647 1112Q838 1112 947 999T1057 688ZM685 1378Q685 1429 714 1462T793 1495Q875 1495 875 1413Q875 1364 847 1328T773 1292Q734 1292 710 1314T685 1378ZM1053 1378Q1053 1430 1083 1462T1162 1495Q1204 1495 1224 1473T1244 1413Q1244 1361 1214
1327T1139 1292Q1102 1292 1078 1314T1053 1378Z" />
<glyph unicode="&#xf7;" horiz-adv-x="1128" d="M125 647V797H1049V647H125ZM473 373Q473 496 586 496Q639 496 669 466T700 373Q700 312 669 281T586 250Q538 250 506 278T473 373ZM473 1071Q473 1194 586 1194Q639 1194 669 1164T700 1071Q700 1010 669 979T586
948Q538 948 506 976T473 1071Z" />
<glyph unicode="&#xf8;" horiz-adv-x="1153" d="M1053 705Q1053 507 979 335T783 73T510 -16Q367 -16 266 47L168 -78L59 6L170 143Q100 247 100 406Q100 596 172 764T368 1022T647 1112Q795 1112 897 1047L997 1171L1106 1090L991 963Q1053 866 1053 705ZM649
965Q544 965 457 893T322 693T274 418Q274 331 291 293L795 920Q738 965 649 965ZM518 129Q618 129 701 200T832 400T879 686Q879 758 866 795L367 172Q420 129 518 129Z" />
<glyph unicode="&#xf9;" horiz-adv-x="1186" d="M279 1098H461L313 408Q295 318 295 270Q295 129 438 129Q525 129 606 188T752 359T848 625L948 1098H1126L893 0H745L768 203H758Q668 85 577 33T387 -20Q259 -20 186 51T113 252Q113 316 135 428L279 1098ZM1060
1241H950Q884 1307 817 1400T724 1548V1569H917Q958 1434 1060 1266V1241Z" />
<glyph unicode="&#xfa;" horiz-adv-x="1186" d="M279 1098H461L313 408Q295 318 295 270Q295 129 438 129Q525 129 606 188T752 359T848 625L948 1098H1126L893 0H745L768 203H758Q668 85 577 33T387 -20Q259 -20 186 51T113 252Q113 316 135 428L279 1098ZM634
1268Q685 1323 752 1411T864 1569H1069V1548Q1022 1491 921 1393T747 1241H634V1268Z" />
<glyph unicode="&#xfb;" horiz-adv-x="1186" d="M279 1098H461L313 408Q295 318 295 270Q295 129 438 129Q525 129 606 188T752 359T848 625L948 1098H1126L893 0H745L768 203H758Q668 85 577 33T387 -20Q259 -20 186 51T113 252Q113 316 135 428L279 1098ZM1036
1241H923Q867 1289 762 1427Q635 1314 522 1241H403V1268Q641 1488 690 1569H864Q898 1477 994 1334L1036 1268V1241Z" />
<glyph unicode="&#xfc;" horiz-adv-x="1186" d="M279 1098H461L313 408Q295 318 295 270Q295 129 438 129Q525 129 606 188T752 359T848 625L948 1098H1126L893 0H745L768 203H758Q668 85 577 33T387 -20Q259 -20 186 51T113 252Q113 316 135 428L279 1098ZM453
1378Q453 1429 482 1462T561 1495Q643 1495 643 1413Q643 1364 615 1328T541 1292Q502 1292 478 1314T453 1378ZM821 1378Q821 1430 851 1462T930 1495Q972 1495 992 1473T1012 1413Q1012 1361 982 1327T907 1292Q870 1292 846 1314T821 1378Z" />
<glyph unicode="&#xfd;" horiz-adv-x="956" d="M98 1098H279L350 555Q361 480 369 361T377 147H383Q409 213 461 326T543 496L862 1098H1055L358 -184Q268 -354 174 -423T-51 -492Q-130 -492 -193 -471V-326Q-130 -344 -61 -344Q21 -344 80 -293T193 -143L264
-16L98 1098ZM756 1268Q807 1323 874 1411T986 1569H1191V1548Q1144 1491 1043 1393T869 1241H756V1268Z" />
<glyph unicode="&#xfe;" horiz-adv-x="1186" d="M786 1116Q927 1116 1006 1017T1085 741Q1085 531 1015 352T823 77T553 -20Q460 -20 386 28T268 168H258Q251 63 233 -18L133 -492H-45L-9 -320L387 1556H567L489 1190Q449 1011 414 893H422Q522 1015 608 1065T786
1116ZM727 967Q637 967 542 878T387 645T328 350Q328 244 381 187T537 129Q635 129 719 211T852 438T901 745Q901 967 727 967Z" />
<glyph unicode="&#xff;" horiz-adv-x="956" d="M98 1098H279L350 555Q361 480 369 361T377 147H383Q409 213 461 326T543 496L862 1098H1055L358 -184Q268 -354 174 -423T-51 -492Q-130 -492 -193 -471V-326Q-130 -344 -61 -344Q21 -344 80 -293T193 -143L264
-16L98 1098ZM589 1378Q589 1429 618 1462T697 1495Q779 1495 779 1413Q779 1364 751 1328T677 1292Q638 1292 614 1314T589 1378ZM957 1378Q957 1430 987 1462T1066 1495Q1108 1495 1128 1473T1148 1413Q1148 1361 1118 1327T1043 1292Q1006 1292 982 1314T957
1378Z" />
<glyph unicode="&#x2013;" horiz-adv-x="983" d="M53 467L90 633H915L881 467H53Z" />
<glyph unicode="&#x2014;" horiz-adv-x="1966" d="M53 467L90 633H1898L1864 467H53Z" />
<glyph unicode="&#x2018;" horiz-adv-x="356" d="M129 961L123 983Q212 1184 391 1462H528Q387 1131 326 961H129Z" />
<glyph unicode="&#x2019;" horiz-adv-x="356" d="M522 1462L530 1440Q490 1349 419 1222T260 961H123Q257 1259 326 1462H522Z" />
<glyph unicode="&#x201a;" horiz-adv-x="498" d="M299 238L307 215Q209 4 37 -264H-100Q16 -2 102 238H299Z" />
<glyph unicode="&#x201c;" horiz-adv-x="733" d="M506 961L498 983Q578 1164 770 1462H905Q758 1117 702 961H506ZM129 961L123 983Q212 1184 391 1462H528Q387 1131 326 961H129Z" />
<glyph unicode="&#x201d;" horiz-adv-x="733" d="M522 1462L530 1440Q490 1349 419 1222T260 961H123Q257 1259 326 1462H522ZM899 1462L907 1440Q820 1242 635 961H500Q552 1077 616 1239T700 1462H899Z" />
<glyph unicode="&#x201e;" horiz-adv-x="872" d="M299 238L307 215Q209 4 37 -264H-100Q16 -2 102 238H299ZM674 238L682 215Q592 21 414 -264H274Q414 52 477 238H674Z" />
<glyph unicode="&#x2022;" horiz-adv-x="770" d="M199 748Q199 870 257 935T426 1001Q536 1001 594 936T653 748Q653 626 594 560T426 494Q316 494 258 560T199 748Z" />
<glyph unicode="&#x2039;" horiz-adv-x="588" d="M86 578L479 965L567 877L272 543L440 164L315 111L86 549V578Z" />
<glyph unicode="&#x203a;" horiz-adv-x="588" d="M500 500L109 111L20 199L315 532L147 911L272 965L500 526V500Z" />
</font>
</defs>
</svg>
